Download mp3 rapidshare Filmy warez

torrent megaupload hotfile
Je 23 Okt 2018 20:07

Všetky časy sú v UTC+01:00




Fórum zamknuté  Téma je zamknutá, nemôžete editovať príspevky ani písať nové.  [ 1 príspevok ] 
Autor Správa
PríspevokNapísané: 30 Jún 2014 19:26 
Nepripojený
Expert
Expert

Dátum registrácie: 24 Máj 2011 23:17
Príspevky: 696
Obrázok

Obrázok

Obrázok


Information:



Cliffhanger.1993 - CZ

INFO:

Format : AVI
Format/Info : Audio Video Interleave
Format profile : OpenDML
File size : 1.68 GiB
Duration : 1h 53mn
Overall bit rate : 3 297 Kbps
Writing application : VirtualDubMod 1.5.10.2 (build 2542/release)
Writing library : VirtualDubMod build 2542/release

Video
ID : 0
Format : MPEG-4 Visual
Format profile : Advanced Simple@L5
Format settings, BVOP : Yes
Format settings, QPel : No
Format settings, GMC : No warppoints
Format settings, Matrix : Default (H.263)
Codec ID : XVID
Codec ID/Hint : XviD
Duration : 1h 53mn
Bit rate : 3 061 Kbps
Width : 1 280 pixels
Height : 528 pixels
Display aspect ratio : 2.40:1
Frame rate : 23.976 fps
Color space : YUV
Chroma subsampling : 4:2:0
Bit depth : 8 bits
Scan type : Progressive
Bits/(Pixel*Frame) : 0.189
Stream size : 2.42 GiB (93%)
Writing library : XviD 1.2.0.dev47 (UTC 2006-11-01)

Audio
ID : 1
Format : AC-3 CZ
Format/Info : Audio Coding 3
Mode extension : CM (complete main)
Codec ID : 2000
Duration : 1h 53mn
Bit rate mode : Constant
Bit rate : 224 Kbps
Channel(s) : 2 channels
Channel positions : Front: L R
Sampling rate : 48.0 KHz
Bit depth : 16 bits
Stream size : 181 MiB (7%)
Alignment : Split accross interleaves
Interleave, duration : 42 ms (1.00 video frame)
Interleave, preload duration : 500 ms


Gabe opustil svou přítelkyni i milované povolání horského vůdce poté,
co nepřímo zavinil smrt dívky svého kolegy. Po několika měsících se vrací.
Traumatizovaný, zdeptaný. Muž, který si sáhl až na dno svých psychických sil.
Zdánlivě. Netuší, že ve stejnou dobu probíhá vysoko nad oblaky loupež století.
Zlotřilý agent FBI se rozhodne přejít na druhou stranu barikády a do začátku
nového života si chce přilepšit několika sty miliony dolarů z federálního rozpočtu.
Ovšem jako už tolikrát je tu lidský faktor, a tak pečlivě naplánovaný zločin
nevyjde přesně podle zdánlivě bezchybného plánu. Tři obrovské kufry až po okraj
napěchované bankovkami dopadají doprostřed krajiny plné zasněžených srázů a
rozeklaných údolí. Chvíli poté havaruje i letadlo se zběhlým agentem a jeho
psychopatickými komplici na palubě. Karty jsou rozdány. Kdo jiný, než dvojice
zkušených horských vůdců, pro které jsou skalnaté vrcholy domovem, může v mrazivé
divočině skalistých hor znovu dopomoci padouchům ke ztracenému bohatství. Gabe a
jeho přítel se díky zbabělé lsti zločinců ocitají rázem v rolích rukojmí. Mají
najít ztracené miliony. Sylvester Stallone v roli rukojmího? Ne nadlouho...
(oficiální text distributora)



Download:


Fastshare

Kód:
http://www.fastshare.cz/3351963/cliffhanger-1-0613.avi

_________________
Ignorujem správy od vedenia - Som ignorant!!!


Hore
Zobraziť príspevky za:  Zoradiť podľa  
Fórum zamknuté  Téma je zamknutá, nemôžete editovať príspevky ani písať nové.  [ 1 príspevok ] 

Všetky časy sú v UTC+01:00


Kto je prítomný

Užívatelia prezerajúci toto fórum: Žiadny pripojení užívatelia a 4 neregistrovaní


V tomto fóre nemôžete zakladať témy
V tomto fóre nemôžete odpovedať v témach
V tomto fóre nemôžete upravovať vlastné príspevky
V tomto fóre nemôžete mazať vlastné príspevky

Vyhľadať:
Rýchla navigácia vo fórach:  
Založené na phpBB® Forum Software © phpBB Limited
Theme Created by HOLLYSMOKE
Theme updated to phpBB 3.1.6 by KamijouTouma
Theme Version is 3.1.6-ss2