Download mp3 rapidshare Filmy warez

torrent megaupload hotfile
Je 18 Jan 2018 06:45

Všetky časy sú v UTC+01:00




Vložiť nový príspevok  Odpovedať k tejto téme  [ 2 príspevky ] 
Autor Správa
 Predmet príspevku: Aut?? 2 / Cars 2 (2011)
PríspevokNapísané: 10 Nov 2011 18:52 
Nepripojený
Odborník
Odborník

Dátum registrácie: 23 Jan 2011 16:01
Príspevky: 368
Aut?? 2 / Cars 2 (2011)

Obrázok

Obrázok
Kód:
http://www.csfd.cz/film/241061/



Obrázok
Citovať príspevok:
Animovan??, kom?©dia, rodinn??
USA, 2011, 106 min
CZ dabing

Format : MP4 at 551 Kbps
Length : 421 MiB for 1h 47mn 1s 440ms

Video #0 : MPEG-4 Visual at 418 Kbps
Aspect : 320 x 240 (1.333) at 25.000 fps

Audio #0 : AAC at 128 Kbps
Infos : 2 kan??ly, 48,0 KHz



Obrázok
HvÄ›zdn?© z??vodn?­ auto Blesk McQueen a jeho p?™?­tel, jedineÄ?n?? odtahov?? v??z Bur??k, se dostanou na ????asn?? m?­sta, kdy?? je jejich cesta zavede za mo?™e. Tam budou soutÄ›??it ve v??bec prvn?­m celosvÄ›tov?©m z??vodÄ› Grand Prix, kde se m?? rozhodnout o nejrychlej???­m autÄ› na svÄ›tÄ›. Ale cesta na ??ampion??t je pln?? dÄ›r, obj?­??dÄ›k a komick??ch p?™ekvapen?­, kdy?? se Bur??k p?™iplete do sv?©ho vlastn?­ho netu??en?©ho dobrodru??stv?­ - mezin??rodn?­ ??pion????e. Bur??k, kter?? je rozpolcen?? t?­m, ??e m?? Bleskovi McQueenovi pom??hat ve vysok?©m z??vodu a z??rove?? se ??Ä?astnit ??pion????n?­ mise s nejvy?????­m utajen?­m, se na sv?© cestÄ› pln?© akc?­ dostane do honiÄ?ky, kter?? ho zavede do ulic Japonska a Evropy, kde ho stopuj?­ jeho p?™??tel?© a sleduje cel?? svÄ›t. K legraci, kter?? se odehr??v?? v rychl?©m tempu se p?™id??v?? pestr?? smÄ›sice nov??ch ??Ä?inkuj?­c?­ch aut vÄ?etnÄ› tajn??ch agent??, hrozn??ch dareb??k?? a mezin??rodn?­ch soupe?™??.


Obrázok
Kód:
http://download.hellshare.sk/mp4-4/auta-2-2011-mp4/4002622/


Hore
 Predmet príspevku: Re: Aut?? 2 / Cars 2 (2011)
PríspevokNapísané: 24 Máj 2013 11:47 
Nepripojený
Pokročilý
Pokročilý

Dátum registrácie: 14 Jún 2012 11:57
Príspevky: 276
Aut?? 2 / Cars 2 (2011)

Obrázok

Kód:
http://www.csfd.cz/film/241061-auta-2/


Animovan?? / Komedie / Dobrodru??n?? / Rodinn??

USA, 2011, 103 min
Re??ie: John Lasseter, Brad Lewis
Hudba: Michael Giacchino
Hraj?­: Owen Wilson, Cheech Marin, Tony Shalhoub, Larry The Cable Guy, Michael Caine, John Turturro, Emily Mortimer, Jason Isaacs, Joe Mantegna, Peter Jacobson, Thomas Kretschmann, Bonnie Hunt, Franco Nero, Eddie Izzard, Jeff Garlin, Paul Dooley, Jenifer Lewis, Katherine Helmond, Jacques Villeneuve, Bruce Campbell, Vanessa Redgrave, John Ratzenberger, Richard Kind


:info:
Kód:
Format                                   : MPEG-4 
 Format profile                           : 3GPP Media Release 4
 Codec ID                                 : 3gp4
 File size                                : 256 MiB
 Duration                                 : 1h 47mn
 Overall bit rate                         : 335 Kbps

 Video
 ID                                       : 1
 Format                                   : H.263
 Format profile                           : BaseLine@1.0
 Codec ID                                 : s263
 Duration                                 : 1h 47mn
 Bit rate                                 : 319 Kbps
 Width                                    : 352 pixels
 Height                                   : 288 pixels
 Display aspect ratio                     : 1.222
 Frame rate mode                          : Constant
 Frame rate                               : 15.000 fps
 Standard                                 : PAL
 Compression mode                         : Lossy
 Bits/(Pixel*Frame)                       : 0.210
 Stream size                              : 245 MiB (95%)
 Writing library                          : FFMpeg

 Audio
 ID                                       : 2
 Format                                   : AMR
 Format/Info                              : Adaptive Multi-Rate
 Format profile                           : Narrow band
 Codec ID                                 : samr
 Duration                                 : 1h 47mn
 Bit rate mode                            : Constant
 Bit rate                                 : 12.8 Kbps
 Channel(s)                               : 1 channel
 Sampling rate                            : 8 000 Hz
 Bit depth                                : 13 bits
 Stream size                              : 9.80 MiB (4%)
 Writing library                          : FFMpeg


Jazyk:CZ
Typ s??boru: 3GP
VeÄ?kos?? s??boru: 257 MB


:download:
Kód:
http://download.hellshare.sk/auta-2-cz-3gp/13419343/


Hore
Zobraziť príspevky za:  Zoradiť podľa  
Vložiť nový príspevok  Odpovedať k tejto téme  [ 2 príspevky ] 

Všetky časy sú v UTC+01:00


Kto je prítomný

Užívatelia prezerajúci toto fórum: Žiadny pripojení užívatelia a 4 neregistrovaní


V tomto fóre nemôžete zakladať témy
V tomto fóre nemôžete odpovedať v témach
V tomto fóre nemôžete upravovať vlastné príspevky
V tomto fóre nemôžete mazať vlastné príspevky

Vyhľadať:
Rýchla navigácia vo fórach:  
cron
Založené na phpBB® Forum Software © phpBB Limited
Theme Created by HOLLYSMOKE
Theme updated to phpBB 3.1.6 by KamijouTouma
Theme Version is 3.1.6-ss2