Download mp3 rapidshare Filmy warez

torrent megaupload hotfile
Je 18 Jan 2018 12:44

Všetky časy sú v UTC+01:00




Vložiť nový príspevok  Odpovedať k tejto téme  [ 1 príspevok ] 
Autor Správa
PríspevokNapísané: 24 Máj 2013 11:44 
Nepripojený
Pokročilý
Pokročilý

Dátum registrácie: 14 Jún 2012 11:57
Príspevky: 276
G. I. Joe/ G.I. Joe: The Rise of Cobra (2009)

Obrázok

Kód:
http://www.csfd.cz/film/235763-g-i-joe/


AkÄ?n?­ / Dobrodru??n?? / Sci-Fi / Thriller

USA / Ä?esko, 2009, 113 min
Re??ie: Stephen Sommers
Sc?©n???™: Stuart Beattie, David Elliot, Paul Lovett
Kamera: Mitchell Amundsen
Hudba: Alan Silvestri
Hraj?­: Dennis Quaid, Channing Tatum, Marlon Wayans, Sienna Miller, Joseph Gordon-Levitt, Sa??d Taghmaoui, Christopher Eccleston, Adewale Akinnuoye-Agbaje, Rachel Nichols, Ray Park, Kevin J. O'Connor, Arnold Vosloo, Byeong-heon Lee, Jonathan Pryce, Gr?©gory Fitoussi, Karol?­na Kurkov??, Gerald Okamura, David Murray, Joe Chacon, Brendan Fraser, Lili Mirojnick, Gunner Wright, Leo Howard, Jim Byrnes, Martin Dew, Frederic Doss


:info:
Kód:
Format                                   : MPEG-4 
 Format profile                           : 3GPP Media Release 4
 Codec ID                                 : 3gp4
 File size                                : 271 MiB
 Duration                                 : 1h 53mn
 Overall bit rate                         : 335 Kbps

 Video
 ID                                       : 1
 Format                                   : H.263
 Format profile                           : BaseLine@1.0
 Codec ID                                 : s263
 Duration                                 : 1h 53mn
 Bit rate                                 : 320 Kbps
 Width                                    : 352 pixels
 Height                                   : 288 pixels
 Display aspect ratio                     : 1.222
 Frame rate mode                          : Constant
 Frame rate                               : 15.000 fps
 Standard                                 : PAL
 Compression mode                         : Lossy
 Bits/(Pixel*Frame)                       : 0.210
 Stream size                              : 259 MiB (95%)
 Writing library                          : FFMpeg

 Audio
 ID                                       : 2
 Format                                   : AMR
 Format/Info                              : Adaptive Multi-Rate
 Format profile                           : Narrow band
 Codec ID                                 : samr
 Duration                                 : 1h 53mn
 Bit rate mode                            : Constant
 Bit rate                                 : 12.8 Kbps
 Channel(s)                               : 1 channel
 Sampling rate                            : 8 000 Hz
 Bit depth                                : 13 bits
 Stream size                              : 10.4 MiB (4%)
 Writing library                          : FFMpeg


Jazyk:CZ
Typ s??boru: 3GP
VeÄ?kos?? s??boru: 272 MB


:download:
Kód:
http://download.hellshare.sk/g-i-joe-cz-verzia-do-mobilu-3gp/13419941/


Hore
Zobraziť príspevky za:  Zoradiť podľa  
Vložiť nový príspevok  Odpovedať k tejto téme  [ 1 príspevok ] 

Všetky časy sú v UTC+01:00


Kto je prítomný

Užívatelia prezerajúci toto fórum: Žiadny pripojení užívatelia a 7 neregistrovaných


V tomto fóre nemôžete zakladať témy
V tomto fóre nemôžete odpovedať v témach
V tomto fóre nemôžete upravovať vlastné príspevky
V tomto fóre nemôžete mazať vlastné príspevky

Vyhľadať:
Rýchla navigácia vo fórach:  
cron
Založené na phpBB® Forum Software © phpBB Limited
Theme Created by HOLLYSMOKE
Theme updated to phpBB 3.1.6 by KamijouTouma
Theme Version is 3.1.6-ss2